[Login] or [Signup]
Login
Username:
Password:
[Signup]
[Recover Account]


Poll


You must be logged in to view polls



Torrent Details For "Coffee with D 2017 720p Esub Hindi GOPISAHI"

Coffee with D 2017 720p Esub Hindi GOPISAHI

Download this torrent | Magnet Download
Health:
Seeds: 429
Leechers: 130
Completed: 1,088 
Last Checked: 30-10-2018 14:18:08
External Torrent
Update Stats
Download Magnet


Poster
No poster


Watch-Free-HD     Download

Details
Name:Coffee with D 2017 720p Esub Hindi GOPISAHI
Description:
 http://www.gopisahi.pw/


Format                         : Matroska

Format version                 : Version 4 / Version 2

File size                      : 601 MiB

Duration                       : 2 h 0 min

Overall bit rate               : 698 kb/s

Movie name                     : Coffee with D 2017 GOPISAHI

Encoded date                   : UTC 2018-10-29 09:42:17

Writing application            : mkvmerge v19.0.0 ('Brave Captain') 32-bit

Writing library                : libebml v1.3.5 + libmatroska v1.4.8


Video

Format                         : AVC

Format/Info                    : Advanced Video Codec

Format profile                 : [email protected]

Format settings                : CABAC / 16 Ref Frames

Format settings, CABAC         : Yes

Format settings, ReFrames      : 16 frames

Codec ID                       : V_MPEG4/ISO/AVC

Duration                       : 2 h 0 min

Bit rate                       : 599 kb/s

Width                          : 1 280 pixels

Height                         : 546 pixels

Display aspect ratio           : 2.35:1

Frame rate mode                : Constant

Frame rate                     : 24.000 FPS

Color space                    : YUV

Chroma subsampling             : 4:2:0

Bit depth                      : 8 bits

Scan type                      : Progressive

Bits/(Pixel*Frame)             : 0.036

Stream size                    : 516 MiB (86%)

Title                          : GOPISAHI

Writing library                : x264 core 155 r2901 7d0ff22

Language                       : Hindi


Audio

ID                             : 2

Format                         : AAC

Format/Info                    : Advanced Audio Codec

Format profile                 : LC

Codec ID                       : A_AAC-2

Duration                       : 2 h 0 min

Bit rate                       : 96.0 kb/s

Channel(s)                     : 2 channels

Channel positions              : Front: L R

Sampling rate                  : 48.0 kHz

Frame rate                     : 46.875 FPS (1024 SPF)

Compression mode               : Lossy

Delay relative to video        : -21 ms

Stream size                    : 82.9 MiB (14%)

Title                          : GOPISAHI

Language                       : Hindi


Text

Language                       : English


Category:Movies > Bollywood
Lang:Hindi
Total Size:600.56 MB
Info Hash:9476708dbb01293cefb7cba202cc90ea7ae52cf4
Added By:gopisahi
Date Added:29-10-2018 15:59:50
Views:984
Hits:89

Download Torrent

Ratings:Not Yet Rated (Log in to rate it)


Tracker:
udp://tracker.coppersurfer.tk:6969/announce


File List: 


Comments

No comments still posted

Powered by 10 Hamsters v2-svn -|- Page Generated In 0.283859 secs.
-|- RSS FEED
Theme By: Nikkbu